&title=Technicians High [ST]
&wholebpm=165
&artist=HiTECH NINJA
&des=シチミヘルツ
&shortid=1020
&genre=maimai
&cabinet=SD
&version=maimai DX UNiVERSE
&chartconverter=Neskol
&lv_2=4
&des_2=
&lv_3=7+
&des_3=
&lv_4=11
&des_4=隅田川星人
&lv_5=13+
&des_5=シチミヘルツ
&des_6=
&inote_2=
(165){1},
{1},
{1}1,
{1}1,
{1}8,
{1}8,
{1}1,
{1}2,
{1}3,
{1}4,
{1}5h[1:1],
{1},
{1}6h[1:1],
{1},
{1}7h[1:1],
{1},
{1}8h[1:1],
{1},
{2}8,8,
{1}7,
{2}6,6,
{1}5,
{2}4,4,
{1}3,
{2}2,2,
{1}1,
{1}1-4[4:3],
{1},
{1}8-5[4:3],
{1},
{1}1-5[4:3],
{1},
{1}8-4[4:3],
{1},
{1}1-6[4:3],
{1},
{1}8h[1:1],
{1},
{2}1b,1,
{2}2,2,
{2}3,3,
{4}4,4,4,,
{2}5,5,
{2}6,6,
{2}7,7,
{4}8,8,8,,
{2}7,7,
{4}6,6,6,,
{2}5,5,
{4}4,4,4,,
{2}3,3,
{4}2,2,2,,
{2}1,1,
{4}8,8,1/8,,
{1}1h[1:1]/2h[1:1],
{1},
{1}7h[1:1]/8h[1:1],
{1},
{2}1,1,
{1}1/2,
{2}3,3,
{1}3/4,
{2}5,5,
{1}5/6,
{2}7,7,
{1}7/8,
{1}1h[1:1]/8h[1:1],
{1},
{1}1-4[4:3]/8-5[4:3],
{1},
{4}3,3,3/4,,
{4}2,2,1/2,,
{4}8,8,7/8,,
{4}6,6,5/6,,
{1}4-1[4:3],
{1},
{1}8-5[4:3],
{1},
{1}4-1[4:3],
{1},
{1}8-5[4:3],
{1},
{1}1b,
{1},
{1},
{1},
E
&inote_3=
(165){1},
{1},
{4}3h[2:1],,4,5,
{4}6h[2:1],,5,5/6,
{4}7h[2:1],,8,1,
{4}2h[2:1],,1,1/2,
{4}3,3,3/4,,
{4}6,6,5/6,,
{2}7h[4:1]/8h[4:1],1h[4:1]/2h[4:1],
{4}8,1/8,2b/7b,,
{4}1/2,1/2,3,4,
{4}5,6,7/8,7/8,
{4}6,5,4,3,
{4}1/2,3/8,4b/7b,,
{4}5/6,5/6,7,8,
{4}1,2,3/4,3/4,
{4}2,1,8,7,
{1}1-5[8:3]/8-4[8:3],
{4}3b,3,3/4,3/4,
{4}6,6,5/6,5/6,
{4}7,7/8,2,1/2,
{4}3,3/4,2/5,,
{4}6,6,5/6,5/6,
{4}3,3,3/4,3/4,
{4}2,1/2,7,7/8,
{4}6,4/5,3b/6b,,
{2}2h[2:1],1,
{2}7h[2:1],8,
{2}2h[2:1],1,
{2}7h[4:1]/8h[4:1],7/8,
{4}6h[4:3],,,5h[4:3],
{2},4h[4:3],
{4},3,,1/2,
{4},7/8,,4/6,
{4}4/6,,3/5,3/5,
{4},4/5,3/6,2/7,
{1}1b/8b,
{1}6>3[8:3],
{8}2,2,2,,1/2,,1/2,,
{4}3,3/4,2/5,,
{8}6,6,6,,5/6,,5/6,,
{4}7,1/8,2/7,,
{8}3,3,3,,2/4,,3/5,,
{8}6,6,6,,5/7,,4/6,,
{4}3h[4:1],4,6h[4:1],5,
{1}4>8[2:1],
{8}7,7,7,,7/8,,7/8,,
{4}6,5/6,4/7,,
{8}3,3,3,,3/4,,3/4,,
{4}2,1/8,2/7,,
{8}6,,5/7,,6,6,6,,
{8}3,,2/4,,3,3,3,,
{8}6,6,5,,3,3,4,,
{4}3/5,2/6,1/7,8,
{1}8<5[8:3],
{1}4>1[8:3],
{8}8,8,8,,1,1,1,,
{8}1/8,1/8,1/8,,2b/7b,,,,
{4}6,6,7,7,
{1}8-4[8:3],
{4}3,4,5,6,
{1}7<4[8:3],
{4}3,3,2,2,
{1}1-5[8:3],
{4}6,5,4,3,
{4}4/5,4/5,3/6,,
{2}7/8,1/2,
{4}1/8,1/8,2/7,,
{1}8<1[4:5],
{1},
{8}2b,2,2,,1/2,,3/4,,
{8}6,6,6,,7/8,,1/2,,
{2}3h[4:1]/4h[4:1],5h[4:1]/6h[4:1],
{4}3/4,3/4,2/5,,
{4}1/2,1/2,3,4,
{4}5,6,7/8,7/8,
{4}6,5,4,3,
{4}1/2,3/8,4b/7b,,
{4}5/6,5/6,7,8,
{4}1,2,3/4,3/4,
{4}2,1,8,7,
{1}1>4[8:3]/8<5[8:3],
{1}4qq1[4:5]/5pp8[4:5],
{1},
{1},
{1},
E
&inote_4=
(165){1},
{1},
{8}5,5,3h[4:1],,4,,3/5,,
{8}6,6,4h[4:1],,5-7[8:1],,,,
{8}4,4,6h[4:1],,5,,4/6,,
{8}3,3,5h[4:1],,4>1[8:1],,,,
{8}8,8,1/7h[4:1],,5,,4/6,,
{8}1,1,2h[4:1]/8,,4,,3/5,,
{2}4/6-8[8:1],3-1[8:1]/5,
{8}8,8,1,1,1/8,,2b/7b,,
{16}3/5,,,,4/6,,,,3h[8:1]/5h[8:1],,,3/5,,,4h[8:1]/6h[8:1],,
{16},4/6,,,3,,3,,2h[8:1]/4h[8:1],,,2/4,,,5h[8:1]/7h[8:1],,
{16},5/7,,,6,,6,,7,,8,,1,,2/8,,
{8}3,3,5,5,4/6,4/6,1b/8b,,
{16}4/6,,,,3/5,,,,4h[8:1]/6h[8:1],,,4/6,,,3h[8:1]/5h[8:1],,
{16},3/5,,,6,,6,,5h[8:1]/7h[8:1],,,5/7,,,2h[8:1]/4h[8:1],,
{16},2/4,,,3,,3,,2,,1,,8z4[16:5],,,,
{4}4,,,3b/6b,
{8}7,7,5-1[8:1],,7-5[8:1],,3,,
{8}2,2,4-8[8:1],,2-4[8:1],,6,,
{8}7,7,5-1[8:1],,7-5[8:1],,3,,
{8}2,2,4-8[8:1],,1,,2b/6b,,
{8}7,7,5-1[8:1],,8<5[8:1],,3,,
{8}2,2,4-8[8:1],,1>4[8:1],,6,,
{8}7,7,5-1[8:1],,8<5[8:1],,3,,
{8}2,2,3-7[8:1]/6-2[8:1],,,,4/5,,
{2}1h[1:10]/7,3,
{16}5,,,5,,,5,,3,,,,,,,,
{2}6,4,
{16}5,,,5,,,5,,3,,,,4,,,,
{8}5h[4:1],,,5h[4:1],,,3h[4:1],,
{8},3h[4:1],,,6h[4:1],,,4,
{8},2,2h[4:1],,,3,3h[4:1],,
{8},4,4h[4:1],,,5,5,,
{8}4h[4:1],,,5h[4:1],,,6h[4:1],,
{8},7h[4:1],,,8,,2,,
{1}2b>8[2:1],
{4}4w8[4:1],,,2b/6b,
{8}3/5,2,1/8,7,5h[4:1]/6,,3-7[8:1],,
{4}1-3[8:1],4-8[8:1],2,3/7,
{8}4/6,7,1/8,2,3/4h[4:1],,6-2[8:1],,
{4}8-6[8:1],5-1[8:1],7,2/6,
{8}3,4,1,8,5,6,1h[4:1],,
{8}4,3,8,1,6h[4:1],,5,,
{8}2,2h[4:1],4,4h[4:1],5,5h[4:1],7,7h[8:1],
{4}8>5[4:1],,,3b/7b,
{8}4/6,7,1/8,2,3/4h[4:1],,6-2[8:1],,
{4}8-6[8:1],4-8[8:1],8,2/6,
{8}3/5,2,1/8,7,5h[4:1]/6,,3-7[8:1],,
{4}1-3[8:1],5-1[8:1],1,3/7,
{16}2,,2,,4h[4:1],,,,3,4,3,,2/5,,,,
{16}7,,7,,5h[4:1],,,,6,5,6,,4/7,,,,
{16}2,,2,,4h[4:1],,,,3,4,3,,2-4[8:1]/5,,,,
{4}6-8[8:1],5-1[8:1],7,2/6,
{4}4>7[8:3],6,6,6,
{4}5<2[8:3],3,3,3,
{8}5,5,4,4,7,7,2,2,
{16}8,1,8,1,8,1,8,1,8,,,,2b/7b,,,,
{16}4/6,,,,3/5,,,,4h[8:1]/6h[8:1],,,3h[8:1]/5h[8:1],,,2/6,,
{8},7,7z3[4:1],,3,,,,
{16}2/5,,,,4/7,,,,2h[16:3],,,3h[16:3],,,4h[4:1],,
{8},5,5>7[16:5],,,,,,
{16}3/5,,,,4/6,,,,3h[8:1]/5h[8:1],,,4h[8:1]/6h[8:1],,,3/7,,
{8},2,2-6[8:1],,6,,5/7,,
{16}1/8,,,,2/4,,,,5h[16:3],,,6h[16:3],,,7h[4:1],,
{8},1,1>6[16:5],,,,,,
{2}1/8h[4:1],2h[4:1]/5,
{8}4h[8:1]/7h[8:1],,2h[8:1]/5h[8:1],,3/6,3/6,2/7>6[4:5],,
{1}1h[4:5],
{4},,4/8,2b/6b,
{8}1/7,6,4/5,3,1h[4:1]/2,,8-4[8:1],,
{4}6-8[8:1],5-1[8:1],7,3/7,
{2}5-1[8:1]/6-1[8:1],3-8[8:1]/4-8[8:1],
{8}5/6,,3/4,,1/8,1/8,2b/7b,,
{16}4/6,,,,3/5,,,,4h[8:1]/6h[8:1],,,3/7,,,3h[8:1]/5h[8:1],,
{16},2/6,,,7,,7,,5h[8:1]/7h[8:1],,,4/8,,,2h[8:1]/4h[8:1],,
{16},1/5,,,2,,2,,1/8,,1/8,,1/8,,1-5[8:1]/8-4[8:1],,
{8},,,,2/7,2/7,1b/8b,,
{16}3/5,,,,4/6,,,,3h[8:1]/5h[8:1],,,2/6,,,4h[8:1]/6h[8:1],,
{16},3/7,,,2,,2,,2h[8:1]/4h[8:1],,,1/5,,,5h[8:1]/7h[8:1],,
{16},4/8,,,7,,7,,1,,2/8,,3/7,,4/6,,
{8}5bV31[4:1]*V71[4:1],,,,,,3/7,3/7,
{1}4b>5[4:7]/5b<4[4:7],
{1},
{1},
{1},
{1},
E
&inote_5=
(165){1},
{1},
{4}4/5h[4:3],6,6,6,
{4}4h[2:1]/5,3,3-5[8:1],,
{4}4/5h[4:3],7,7,7,
{4}4h[2:1]/5,2,2-4[8:1]*-5[8:1],,
{8}7-5[8:1],7,4-2[8:1],4,7-4[8:1],7,1,,
{8}2-4[8:1],2,5-7[8:1],5,2-5[8:1],2,8,,
{8}5/6,4/7,,,3/4,2/5,,,
{4}1-5[8:1],1w5[8:1],1,3/7,
{16}1/8,,,,3/6,,,,1/7,,8,1,,1,3,,
{16}3,5,,5,7,,1/7,,2/8,,6,5,,5,3,,
{16}3,1,,1,7,,4/6,,1,,3/4,,5/6,,7/8,,
{16}6,5,,5,4,,1/2,,3/8,,4/7,,5/6,,,,
{16}1/8,,,,3/6,,,,2/8,,1,8,,8,6,,
{16}6,4,,4,2,,2/8,,1/7,,3,4,,4,6,,
{16}6,8,,8,2,,3/5,,8,,5/6,,3/4,,1/2,,
{4}3>4[4:1]/8,,,1/5,
{8}2v4[8:1],4p7[8:1],6,,5-8[8:1],5,1,,
{8}7v5[8:1],5q2[8:1],3,,4-1[8:1],4,8,,
{8}2v4[8:1],4p7[8:1],6,,5-8[8:1],5,1,,
{16}2,1,2,1,3,4,3,4,2,5,3,6,4h[8:1],,1b,,
{8}3v1[8:1],1q6[8:1],7,,8-4[8:1],8,2,,
{8}6v8[8:1],8p3[8:1],2,,1-5[8:1],1,7,,
{8}3v1[8:1],1q6[8:1],7,,8-4[8:1],8,2,,
{16}7,8,7,8,6,5,6,5,7,8,1,2,3b,,,,
{2}2<3[4:39],6,
{16}5,,,5,,,5,,4,,,,,,,,
{2}2,1,
{16}7,,,7,,,7,,6,,,,,,,,
{8}5h[4:1],,,4h[4:1],,,2h[4:1],,
{8},1h[4:1],,,8h[4:1],,,7h[8:1],
{8},8,8h[4:1],,,1,1h[4:1],,
{8},2,2h[4:1],,,1,1,,
{8}8h[4:1],,,7h[4:1],,,6h[4:1],,
{8},5h[4:1],,,4,,5-8[16:1],,
{1}5,
{16}6,5,6,3,4,3,8,1,7,2,5,4,8b-3[8:1],,,,
{16}4,,5,5,,,4/8,,2/5,,3,4,2-7[8:1],4,3,,
{16}6-3[8:1],,5,,1-6[8:1],,2,,1/6,,5,,3-7[8:1],4,3,4,
{16}3,,1,1,,,4/8,,1/6,,7,8,6-1[8:1],8,7,,
{16}3-8[8:1],,2,,5,,4,,2/6,,,,3,4,3,4,
{8}2<7[8:1],8,4-8[8:1],5,6>3[8:1],7,1-7[8:1],2-6[8:1],
{16}1-5[8:1],,2,,1,,2,,3/7,,,,6-1[8:1],5,6,,
{16}3-6[8:1],,2,,8-4[8:1],,7,,6,,5,,2,1,2,1,
{16}3/8,,2,4,3,8,1,7,3,5,4,6,1b-6[8:1],,,,
{16}5,,4,4,,,1/5,,4/7,,6,5,7-4[8:1],5,6,,
{16}3-8[8:1],,2,,5-1[8:1],,6,,2/5,,3,,6-2[8:1],5,6,5,
{16}6,,8,8,,,1/5,,3/8,,2,1,3-8[8:1],1,2,,
{16}6-1[8:1],,7,,4,,5,,3/7,,,,6,5,6,5,
{16}7h[16:3],,,8,7,,1/6,,2,3,4,5,2,3,4,5,
{16}2h[16:3],,,1,2,,3/8,,7,6,5,4,7,6,5,4,
{16}7h[16:3],,,8,7,,1/6,,2,1,8,7,2,1,8,7,
{16}1h[16:3],,,4,3,,2/5,,3/6,,4/7,,5/8<4[4:1],,,,
{4}4>8[4:1],8<4[4:1],4>8[4:1],8<4[4:1],
{4}4>8[4:1],8<4[4:1],4,1,
{16}3/8,,2,1,,1,2,,1/6,,7,8,,8,7,,
{16}3,4,3,6,5,6,1,8,2,7,4,5,2b/7b,,,,
{16}2/3,,,,6/7,,,,2h[8:1]/4h[8:1],,,4h[8:1]/5h[8:1],,,5h[8:1]/7h[8:1],,
{24},,,7/8,,,1/6,,,2/5,,,4/7,,,4/7,3/6,2/5,1/4,,,7/8,,,
{16}1/6,,,,3/8,,,,2h[8:1]/4h[8:1],,,4h[8:1]/5h[8:1],,,5h[8:1]/7h[8:1],,
{8},1s5[8:1]/8,1/8,,,,,,
{16}6/7,,,,2/3,,,,5h[8:1]/7h[8:1],,,4h[8:1]/5h[8:1],,,2h[8:1]/4h[8:1],,
{24},,,1/2,,,3/8,,,4/7,,,2/5,,,2/5,3/6,4/7,5/8,,,1/2,,,
{16}3/8,,,,1/6,,,,5h[8:1]/7h[8:1],,,4h[8:1]/5h[8:1],,,2h[8:1]/4h[8:1],,
{16},,2/8,,2/8,,,,1,1,1,1,1,1,1,1,
{2}1V35[8:1],1V75[8:1],
{4}1-4[8:1],1-6[8:1],1,1V35[4:1]/8,
{4}5V71[4:1],1V35[4:1],5V71[4:1],1V37[4:1],
{4}5,1-4[8:1]*-6[8:1],1,3/7,
{16}2-5[8:1]/8,,1,8,2,,1,,3/7,,6,5/7,,3,2/4,,
{16}1/7-4[8:1],,8,1,7,,8,,2/6,,3,2/4,,6,5/7,,
{2}1w5[8:1],8w4[8:1],
{4}1<6[8:1]*>4[8:1],1-5[8:1]*s5[8:1],1,3/7,
{16}1/8,,,,3/6,,,,2/8,,1,8,,8,6,,
{16}6,4,,4,2,,1/2,,1/8,,3,4,,4,6,,
{16}6,8,,8,2,,2/3,,4/5,,6/7,,1/8,,2/4,,
{16}3,3,3,3,3,,2/8,,1/7,,4/5,,2h[8:1]/7h[8:1],,,,
{16}1/8,,,,3/6,,,,1/7,,8,1,,1,3,,
{16}3,5,,5,7,,7/8,,1/8,,6,5,,5,3,,
{16}3,1,,1,7,,6/7,,4/5,,2/3,,1/8,,5/7,,
{16}8,1,,,2/3,,2/3,,1/4,,5/8,,6-2[16:1]/7-3[16:1],,5/8,,
{1}6b>7[4:11]/7b>6[4:11],
{1},
{1},
{1},
{1},
{1},
E
